ExtraTorrent.cc - The Largest Bittorent SystemLogin   |   Register
ExtraTorrent.cc
Important Information
ExtraTorrent.cc
Please pay attention
We moved to new domain EXTRATORRENT.CC
More information comming soon...

Latest Articles
Recommend us with Google

Most searched
Hot torrents
First Cams
View Torrent Info: A Haunted House 2 2014 CAM XVID AC3-EVE
View Torrent Info: Captain America The Winter Soldier 2014 TS XviD MP3 MiLLENiUM
View Torrent Info: The Amazing Spiderman 2 2014 3D CAM V1 READNFO XVID-EVE
View Torrent Info: Sabotage 2014 CAM NEWSOURCE XVID-EVE
Hot torrents
XVID DIVX
View Torrent Info: Kid Cannabis [2014] HDRip XviD-SaM[ETRG]
View Torrent Info: Small Time [2013] HDRip XviD-SaM[ETRG]
View Torrent Info: Pup [2013] BRRip XviD-SaM[ETRG]
View Torrent Info: Favor [2013] HDRip XViD juggs[ETRG]
Hot torrents
H264 X264
View Torrent Info: Serenity [2005] 1080p BluRay AAC x264-tomcat12[ETRG]
View Torrent Info: War 2007 BluRay 720p AC3 x264-3Li [ETRG]
View Torrent Info: Dom Hemingway [2013] 1080p BluRay AAC x264-tomcat12[ETRG]
View Torrent Info: Valkyrie 2008 BluRay 720p AC3 x264-3Li [ETRG]
Hot torrents
Television
View Torrent Info: Reign S01E19 HDTV x264-2HD[ettv]
View Torrent Info: The Americans 2013 S02E09 HDTV x264-2HD[ettv]
View Torrent Info: Arrow S02E20 HDTV x264-LOL[ettv]
View Torrent Info: The 100 S01E06 HDTV x264-2HD[ettv]
View Torrent Info: Sweet Alibis[2014]BRRip XviD[Chinese]-SaM[ETRG]
View Torrent Info: Insidious Chapter 2 (2013) 720p Blu-Ray x264 [Dual-Audio] [English DD 5.1   Hindi DD 2.1] - Mafiaking - [D3Si MaNiaCs]
View Torrent Info: Scream 4 (2011) BRRip 720p x264 [Dual Audio][448 Kbps] [Hindi 5.1 English 5.1]--prisak~~{HKRG}
View Torrent Info: The Truman Show (1998) | m-HD | 720p | Hindi | Eng | BHATTI87
30s
Chat
To add new messages please Login or Register for FREE
novalayer

BetExpert.me sport tips

ExtraTorrent.cc > Categories > Movies torrents > Action torrents


Browse Movies torrents

Fast.And.Furious.6.2013.READNFO.CAM.XViD.UNiQUE torrent


Download torrent:Download Fast.And.Furious.6.2013.READNFO.CAM.XViD.UNiQUE torrentMagnet linkBookmark Torrent: Fast.And.Furious.6.2013.READNFO.CAM.XViD.UNiQUESend Torrent: Fast.And.Furious.6.2013.READNFO.CAM.XViD.UNiQUE Fast.And.Furious.6.2013.READNFO.CAM.XViD.UNiQUE torrent
Direct Download: DOWNLOAD Torrent - no client needed
Info hash:54FE5C4C4329BA8100673B9035A1B54AE20C4C07
Category:Categories > Movies torrents > Action torrents
Trackers:
15   View all torrent trackers >
Seeds:35Update seeds and leechers stat
Leechers:1
Health:
Torrent language:English English
Total Size:1.44 GB
Number of files:
3   View torrent files >
Uploader:Admin
Torrent added:2013-05-18 22:21:35   |   Last edit: 2013-05-18 22:23:05 by Admin
Fast.And.Furious.6.2013.READNFO.CAM.XViD.UNiQUE


Download Fast.And.Furious.6.2013.READNFO.CAM.XViD.UNiQUE torrentDownload


Torrent Description
48762122528931696951.jpg


http://www.imdb.com/title/tt1905041/



Plot: Agent Luke Hobbs enlists Dominic Toretto and his team to bring down former Special Ops soldier Owen Shaw, leader of a unit specializing in vehicular warfare.



Director:
Justin Lin

Writers:
Chris Morgan (screenplay), Gary Scott Thompson (characters)

Stars:
Dwayne Johnson, Vin Diesel, Paul Walker

Genres:
Action | Crime | Thriller

Country:
USA

Language:
English




Format : AVI
Format/Info : Audio Video Interleave
File size : 1.42 GiB
Duration : 2h 0mn
Overall bit rate : 1 687 Kbps
Writing application : VirtualDubMod 1.5.10.2 (build 2540/release)
Writing library : VirtualDubMod build 2540/release

Video
ID : 0
Format : MPEG-4 Visual
Format profile : Advanced Simple@L5
Format settings, BVOP : 2
Format settings, QPel : No
Format settings, GMC : No warppoints
Format settings, Matrix : Default (H.263)
Muxing mode : Packed bitstream
Codec ID : XVID
Codec ID/Hint : XviD
Duration : 2h 0mn
Bit rate : 1 540 Kbps
Width : 682 pixels
Height : 298 pixels
Display aspect ratio : 2.25:1
Frame rate : 50.000 fps
Color space : YUV
Chroma subsampling : 4:2:0
Bit depth : 8 bits
Scan type : Progressive
Compression mode : Lossy
Bits/(Pixel*Frame) : 0.152
Stream size : 1.30 GiB (91%)
Writing library : XviD 64

Audio
ID : 1
Format : MPEG Audio
Format version : Version 1
Format profile : Layer 3
Codec ID : 55
Codec ID/Hint : MP3
Duration : 2h 0mn
Bit rate mode : Constant
Bit rate : 128 Kbps
Channel(s) : 2 channels
Sampling rate : 48.0 KHz
Compression mode : Lossy
Stream size : 110 MiB (8%)
Alignment : Split accross interleaves
Interleave, duration : 20 ms (1.00 video frame)
Interleave, preload duration : 500 ms




http://www.imdb.com/title/tt1905041/

Since Dom (Diesel) and Brian's (Walker) Rio heist toppled a kingpin's empire and left their crew with $100 million, our heroes have scattered across the globe. But their inability to return home and living forever on the lam have left their lives incomplete. Meanwhile, Hobbs (Johnson) has been tracking an organization of lethally skilled mercenary drivers across 12 countries, whose mastermind (Evans) is aided by a ruthless second-in-command revealed to be the love Dom thought was dead, Letty (Rodriguez). The only way to stop the criminal outfit is to outmatch them at street level, so Hobbs asks Dom to assemble his elite team in London. Payment? Full pardons for all of them so they can return home and make their families whole again.





Source Used

Movie/HD/Bluray Fast And Furious 6 2013 720p CAM-TheCod3r /Thanks

Video has alot of movement so cropped away what i believed was the most i could without losing too much due to the movement..........Work done well check the sample and see i did start cutting n sorting movement but as another source is gonna drop i stopped





95708728851844605474_thumb.jpg
65861311876823838889_thumb.jpg
41192109297946077093_thumb.jpg
41904155440802686082_thumb.jpg
60505866901796154397_thumb.jpg
31722023993371969087_thumb.jpg

Download Fast.And.Furious.6.2013.READNFO.CAM.XViD.UNiQUE torrentDownload


Comments (please add your comment)
1
posted by Site FriendTrue Love (2013-05-18 22:58:39)
weesteffi avatarvery nice looking, going by the screens nab this for my boys cheers mate x


2
posted by Site FriendET loverSuperman (2013-05-19 05:47:27)
leeroy88 avatarA/V - 7.5/6. Great effort. Thanks Silmarillion & UNiQUE.


3
posted by ET junkieET loverGirl (2013-05-19 18:22:43)
cosmiclsd avataroops! missd this one,lol will grab er,thx,Sil & UNIQUE


4
posted by (2013-05-21 17:20:54)
No avatardoes this have the bits after credits


5
posted by ET junkie (2013-05-30 05:09:24)
dugg_dugg avatarthnx. downloading it....screen looks good. plz seed max


6
posted by (2013-07-02 21:09:12)
No avatarits not got end bits




Recent Searches




Home - Browse Torrents - Upload Torrent - Stat - Forum - FAQ - Torrent sitemap - Login
ExtraTorrent.cc is in compliance with copyrights
BitCoin: 1XeH1kKXWYbzZcFHokGiZ4d3MWW5WyXzU
©2006-2013 ExtraTorrent.cc